HD-AREA wünscht Euch eine besinnliche Weihnachtszeit ;)

DNS SERVER AENDERNum der staatlichen Zensur zu umgehen. Sollten wir von eurem Provider geseprrt werden, nutzt den TOR BROWSER oder ändert euren DNS SERVER.

Filmwünsche können bei uns im Forum abgegeben werden

Wir Speichern Nicht




 
 
 
Top Releases
Black.47.2018.MULTi.COMPLETE...
BlacKkKlansman.2018.German.D...
BlacKkKlansman.2018.German.7...
The.Last.Movie.Star.2017.Ger...
Black.47.2018.German.720p.Bl...
Black.47.2018.German.DL.1080...
Mission.Impossible.Fallout.2...
Mission.Impossible.Fallout.2...
Ein.Kind.zur.Zeit.2018.Germa...
Bad.Moms.2016.German.DL.1080...

Cinedubs
Night.School.2018.GERMAN.DL....
Night.School.2018.GERMAN.DL....
Gaensehaut.2.Gruseliges.Hall...
Gaensehaut.2.Gruseliges.Hall...
Unknown.User.2.Dark.Web.Germ...
Unknown.User.2.Dark.Web.Germ...
Peppermint.Angel.of.Vengeanc...
Peppermint.Angel.of.Vengeanc...
Venom.German.DL.AC3.Dubbed.1...
Venom.2018.German.AC3D.5.1.D...

Neuerscheinungen 2017-18
Wildling.2018.German.DL.1080...
Wildling.2018.German.720p.Bl...
Breaking.In.2018.German.DTS....
Breaking.In.2018.German.DTS....
I.Still.See.You.Sie.lassen.d...
I.Still.See.You.Sie.lassen.d...
Mara.2018.German.720p.BluRay...
Mara.2018.German.DL.1080p.Bl...
Espen.und.die.Legende.vom.Be...
Espen.und.die.Legende.vom.Be...

XXX
FatManFuck.17.09.28.Savannah...
Kemaco.29.XXX.720p.WEBRip.MP...
LANewGirl.18.11.25.Hanna.Ret...
MatureNL.18.11.08.Alexa.Blun...
LANewGirl.18.11.27.Kinsley.M...
LittleCapriceDreams.18.11.23...
MatureNL.18.11.13.Beau.Diamo...
MatureNL.18.11.16.Cassie.Ell...
KimberLeeLive.18.12.01.Teach...
LivingWithAPornstar.18.12.03...
MatureNL.18.11.06.Allison.An...
KimberLeeLive.18.11.24.Am.I....
MatureNL.18.11.02.Gina.Feroc...
Killergram.18.12.01.Karina.G...
Hitzefrei.18.10.31.Nina.Vega...
Lesbea.18.12.01.Ashely.Ocean...
LittleCapriceDreams.18.12.01...
FatManFuck.17.10.02.Lauren.C...
LesbianX.18.12.01.Sinn.Sage....
HeavyOnHotties.18.11.30.Tayl...

3D
Gans.im.Glueck.3D.2018.MULTi...
The.Art.of.Flight.3D.2011.Ge...
The.End.Of.The.World.3D.2010...
The.First.Avenger.Civil.War....
Die.Unglaublichen.2.2018.3D....
Skyscraper.3D.2018.MULTi.COM...
Ant-Man.And.The.Wasp.3D.2018...
Ant.Man.and.the.Wasp.3D.2018...
Die.Unglaublichen.2.3D.2018....
Die.Unglaublichen.2.2018.3D....
Die.Unglaublichen.2.2018.3D....
Sharknado.6.The.Last.One.3D....
Deep.Kleine.Helden.der.Tiefs...
Deep.3D.2017.MULTI.COMPLETE....
Detective.Dee.und.die.Legend...

Old_Stuff
Akte.X.S04.German.DTS.DL.108...
Akte.X.S03.German.DTS.DL.108...
Dunkirk.1958.COMPLETE.BLURAY...
Das.Wunder.von.Manhattan.199...
The.Amazing.Spiderman.2.Rise...
Rise.of.the.Predator.2014.Ge...
Detective.Dee.und.das.Geheim...
Detective.Dee.Und.Der.Fluch....
Ghost.Rider.Spirit.of.Vengea...
Species.IV.Das.Erwachen.2007...
Species.IV.Das.Erwachen.2007...
Hotel.Transsilvanien.2012.Ge...
The.Dead.2010.German.DL.1080...
The.Dead.2.India.2013.German...
Britney.Spears.Live.The.Femm...

Filme
Raze.Fight.or.Die.2013.Germa...
Ready.for.Hangover.2009.Germ...
Das.Wunder.von.Manhattan.194...
Der.Ghostwriter.2010.German....
Ranchero.2008.German.DL.1080...
Rebellion.2011.German.DL.108...
Rammbock.Berlin.Undead.2010....
Miami.Vice.S01.Uncut.German....
Succession.S01D01-3.MULTi.CO...
Venom.2018.German.Dubbed.AC3...
Draculas.Haus.1945.German.Du...
Das.Siebente.Siegel.German.A...
Draculas.Sohn.1943.German.Du...
Meine.teuflisch.gute.Freundi...
No.Mans.Land.The.Rise.of.Ree...
MacLintock.1963.Authentic.Co...
23.-.Nichts.ist.so.wie.es.sc...
Berlin.Station.S03.GERMAN.DL...
Berlin.Station.S03.GERMAN.72...
Crazy.Rich.Asians.2018.Germa...
Meg.2018.German.DL.2160p.UHD...
Dogs.of.Berlin.S01.COMPLETE....
Shameless.US.S08.COMPLETE.Ge...
Wrecked.S03.COMPLETE.GERMAN....

 
 
Zwei.vom.alten.Schlag.2013.German.DL.1080p.BluRay.x265-BluRHD

Jahr: 2013
Genre: Drama, Sport
Sprache: Deutsch AC3 | Englisch DTS
Laufzeit: 1h 53mn
Bitrate: 6 803 Kbps
Format: MKV
Größe: 5.38 GiB
Release:

Beschreibung:

Die heftige Rivalität der beiden Boxer Billy “The Kid” McDonnen (Robert De Niro) und Henry “Razor” Sharp (Sylvester Stallone) sorgte einst für Aufmerksamkeit im ganzen Land. Während der umjubelten Blütezeit konnten die beiden Jungs aus Pittsburgh jeweils einmal einen Sieg über den anderen erringen. Doch im Jahr 1983, am Vorabend ihres entscheidenden dritten Kampfes, gab Razor plötzlich seinen sofortigen Rücktritt bekannt und verweigerte eine Begründung für seine Entscheidung. Es kam nie zu dem Duell und das bedeutete auch für Karriere von The Kid den Knock-Out. Als die beiden Box-Veteranen sich 30 Jahre später wiederbegegnen, kommt es zu einem handgreiflichen Streit, der im Internet für Aufsehen sorgt. Der Box-Promoter Dante Slate Jr. (Kevin Hart) sieht das Video und wittert einen großen kommerziellen Erfolg. Er unterbreitet den pensionierten Stars ein Angebot, das sie nicht ablehnen können und so steigen The Kid und Razor mit reichlicher Verspätung doch noch zum Entscheidungskampf in den Ring.



Complete name                            : bhd-zvas-x265.mkv
Format                                   : Matroska
Format version                           : Version 4 / Version 2
File size                                : 5.38 GiB
Duration                                 : 1h 53mn
Overall bit rate                         : 6 803 Kbps
Encoded date                             : UTC 2018-12-04 15:12:17
Writing application                      : mkvmerge v8.8.0 ('Wind at my back') 32bit
Writing library                          : libebml v1.3.3 + libmatroska v1.4.4
DURATION                                 : 01:52:49.752000000
NUMBER_OF_FRAMES                         : 1947
NUMBER_OF_BYTES                          : 7645748
_STATISTICS_WRITING_APP                  : mkvmerge v8.8.0 ('Wind at my back') 32bit
_STATISTICS_WRITING_DATE_UTC             : 2018-12-04 15:12:17
_STATISTICS_TAGS                         : BPS DURATION NUMBER_OF_FRAMES NUMBER_OF_BYTES

Video
ID                                       : 1
Format                                   : HEVC
Format/Info                              : High Efficiency Video Coding
Format profile                           : Main@L4.0
Codec ID                                 : V_MPEGH/ISO/HEVC
Duration                                 : 1h 53mn
Bit rate                                 : 4 518 Kbps
Width                                    : 1 920 pixels
Height                                   : 1 080 pixels
Display aspect ratio                     : 16:9
Frame rate mode                          : Constant
Frame rate                               : 23.976 fps
Color space                              : YUV
Chroma subsampling                       : 4:2:0
Bit depth                                : 8 bits
Bits/(Pixel*Frame)                       : 0.091
Stream size                              : 3.58 GiB (66%)
Writing library                          : x265 2.9+1-169e76b6bbcc:[Windows][GCC 8.2.0][64 bit] 8bit+10bit+12bit
Encoding settings                        : cpuid=1049583 / frame-threads=3 / numa-pools=16,16 / wpp / no-pmode / no-pme / no-psnr / no-ssim / log-level=2 / input-csp=1 / input-res=1920x1080 / interlace=0 / total-frames=162951 / level-idc=0 / high-tier=1 / uhd-bd=0 / ref=4 / no-allow-non-conformance / no-repeat-headers / annexb / no-aud / no-hrd / info / hash=0 / no-temporal-layers / open-gop / min-keyint=23 / keyint=250 / gop-lookahead=0 / bframes=4 / b-adapt=2 / b-pyramid / bframe-bias=0 / rc-lookahead=25 / lookahead-slices=4 / scenecut=40 / radl=0 / no-intra-refresh / ctu=64 / min-cu-size=8 / rect / no-amp / max-tu-size=32 / tu-inter-depth=1 / tu-intra-depth=1 / limit-tu=0 / rdoq-level=2 / dynamic-rd=0.00 / no-ssim-rd / signhide / no-tskip / nr-intra=0 / nr-inter=0 / no-constrained-intra / strong-intra-smoothing / max-merge=3 / limit-refs=3 / limit-modes / me=3 / subme=3 / merange=57 / temporal-mvp / weightp / no-weightb / no-analyze-src-pics / deblock=0:0 / sao / no-sao-non-deblock / rd=4 / no-early-skip / rskip / no-fast-intra / no-tskip-fast / no-cu-lossless / no-b-intra / no-splitrd-skip / rdpenalty=0 / psy-rd=2.00 / psy-rdoq=1.00 / no-rd-refine / no-lossless / cbqpoffs=0 / crqpoffs=0 / rc=crf / crf=19.5 / qcomp=0.60 / qpstep=4 / stats-write=0 / stats-read=0 / ipratio=1.40 / pbratio=1.30 / aq-mode=1 / aq-strength=1.00 / cutree / zone-count=0 / no-strict-cbr / qg-size=32 / no-rc-grain / qpmax=69 / qpmin=0 / no-const-vbv / sar=1 / overscan=0 / videoformat=5 / range=0 / colorprim=2 / transfer=2 / colormatrix=2 / chromaloc=0 / display-window=0 / max-cll=0,0 / min-luma=0 / max-luma=255 / log2-max-poc-lsb=8 / vui-timing-info / vui-hrd-info / slices=1 / no-opt-qp-pps / no-opt-ref-list-length-pps / no-multi-pass-opt-rps / scenecut-bias=0.05 / no-opt-cu-delta-qp / no-aq-motion / no-hdr / no-hdr-opt / no-dhdr10-opt / no-idr-recovery-sei / analysis-reuse-level=5 / scale-factor=0 / refine-intra=0 / refine-inter=0 / refine-mv=0 / no-limit-sao / ctu-info=0 / no-lowpass-dct / refine-mv-type=0 / copy-pic=1 / max-ausize-factor=1.0 / no-dynamic-refine / no-single-sei
Default                                  : Yes
Forced                                   : No

Audio #1
ID                                       : 2
Format                                   : AC-3
Format/Info                              : Audio Coding 3
Mode extension                           : CM (complete main)
Format settings, Endianness              : Big
Codec ID                                 : A_AC3
Duration                                 : 1h 53mn
Bit rate mode                            : Constant
Bit rate                                 : 640 Kbps
Channel(s)                               : 6 channels
Channel positions                        : Front: L C R, Side: L R, LFE
Sampling rate                            : 48.0 KHz
Bit depth                                : 16 bits
Compression mode                         : Lossy
Stream size                              : 519 MiB (9%)
Title                                    : German
Language                                 : German
Default                                  : Yes
Forced                                   : No

Audio #2
ID                                       : 3
Format                                   : DTS
Format/Info                              : Digital Theater Systems
Mode                                     : 16
Format settings, Endianness              : Big
Codec ID                                 : A_DTS
Duration                                 : 1h 53mn
Bit rate mode                            : Constant
Bit rate                                 : 1 509 Kbps
Channel(s)                               : 6 channels
Channel positions                        : Front: L C R, Side: L R, LFE
Sampling rate                            : 48.0 KHz
Bit depth                                : 24 bits
Compression mode                         : Lossy
Stream size                              : 1.19 GiB (22%)
Title                                    : English
Language                                 : English
Default                                  : No
Forced                                   : No

Text #1
ID                                       : 4
Format                                   : VobSub
Muxing mode                              : zlib
Codec ID                                 : S_VOBSUB
Codec ID/Info                            : The same subtitle format used on DVDs
Title                                    : German forced
Language                                 : German
Default                                  : Yes
Forced                                   : Yes

Text #2
ID                                       : 5
Format                                   : VobSub
Muxing mode                              : zlib
Codec ID                                 : S_VOBSUB
Codec ID/Info                            : The same subtitle format used on DVDs
Title                                    : German full
Language                                 : German
Default                                  : No
Forced                                   : No

Text #3
ID                                       : 6
Format                                   : VobSub
Muxing mode                              : zlib
Codec ID                                 : S_VOBSUB
Codec ID/Info                            : The same subtitle format used on DVDs
Title                                    : English full
Language                                 : English
Default                                  : No
Forced                                   : No


Download:
Share Online Share OnlineShare OnlineShare Online
 

Kommentare