HD-AREA wünscht Euch eine besinnliche Weihnachtszeit ;)

DNS SERVER AENDERNum der staatlichen Zensur zu umgehen. Sollten wir von eurem Provider geseprrt werden, nutzt den TOR BROWSER oder ändert euren DNS SERVER.

Filmwünsche können bei uns im Forum abgegeben werden

Wir Speichern Nicht




 
 
 
Top Releases
The.Nun.German.DL.AC3.Dubbed...
The.Nun.German.DL.AC3.Dubbed...
Alpha.German.DL.AC3.Dubbed.1...
Alpha.German.DL.AC3.Dubbed.7...
Braven.2018.GERMAN.DL.1080p....
Braven.2018.GERMAN.720p.BluR...
Mary.und.die.Blume.der.Hexen...
Mary.und.die.Blume.der.Hexen...
Braven.2018.MULTI.COMPLETE.B...
Paradox.Kill.Zone.Bangkok.20...

Cinedubs
Gaensehaut.2.Gruseliges.Hall...
Gaensehaut.2.Gruseliges.Hall...
Unknown.User.2.Dark.Web.Germ...
Unknown.User.2.Dark.Web.Germ...
Peppermint.Angel.of.Vengeanc...
Peppermint.Angel.of.Vengeanc...
Venom.German.DL.AC3.Dubbed.1...
Venom.2018.German.AC3D.5.1.D...
Venom.2018.German.AC3D.5.1.D...
Das.krumme.Haus.2017.GERMAN....

Neuerscheinungen 2017-18
Lost.Highway.1997.MULTi.COMP...
Das.Haus.der.Vergessenen.The...
In.einem.Land.vor.unserer.Ze...
Kopfueber.in.die.Nacht.Into....
Das.Grab.der.Lygeia.The.Tomb...
Jesse.James.Mann.ohne.Gesetz...
Robur.Der.Herr.der.sieben.Ko...
Bleeder.1999.MULTi.COMPLETE....
Hoere.die.Stille.Der.Schreck...
Die.Supermonster.und.der.Wun...

XXX
FatManFuck.17.10.03.Dolly.XX...
MatureNL.18.11.09.Eva.Jayne....
Lesbea.18.12.02.Boni.And.Cin...
HelplessTeens.E65.Eden.Sin.X...
Hitzefrei.18.10.29.Dana.Jayn...
Kemaco.29.XXX.1080p.WEBRip.M...
Lustery.E151.Alex.And.Selina...
JoanaBliss.18.10.03.The.Roya...
Housewives.Groupsex.Club.XXX...
ATKGirlfriends.18.12.03.Chlo...
HotAndMean.18.12.02.Kimber.W...
Housewives.Groupsex.Club.XXX...
FatManFuck.17.09.25.Emily.Ja...
JoanaBliss.18.08.22.Joana.Ro...
JoanaBliss.18.08.08.Joana.an...
JoanaBliss.18.06.27.Bikini.T...
FatManFuck.17.09.27.Lola.Rae...
JapanHDV.18.12.02.Promiscuit...
FatManFuck.17.09.28.Peaches....
IKnowThatGirl.18.12.02.Scarl...

3D
Gans.im.Glueck.3D.2018.MULTi...
The.Art.of.Flight.3D.2011.Ge...
The.End.Of.The.World.3D.2010...
The.First.Avenger.Civil.War....
Die.Unglaublichen.2.2018.3D....
Skyscraper.3D.2018.MULTi.COM...
Ant-Man.And.The.Wasp.3D.2018...
Ant.Man.and.the.Wasp.3D.2018...
Die.Unglaublichen.2.3D.2018....
Die.Unglaublichen.2.2018.3D....
Die.Unglaublichen.2.2018.3D....
Sharknado.6.The.Last.One.3D....
Deep.Kleine.Helden.der.Tiefs...
Deep.3D.2017.MULTI.COMPLETE....
Detective.Dee.und.die.Legend...

Old_Stuff
Akte.X.S04.German.DTS.DL.108...
Akte.X.S03.German.DTS.DL.108...
Dunkirk.1958.COMPLETE.BLURAY...
Das.Wunder.von.Manhattan.199...
The.Amazing.Spiderman.2.Rise...
Rise.of.the.Predator.2014.Ge...
Detective.Dee.und.das.Geheim...
Detective.Dee.Und.Der.Fluch....
Ghost.Rider.Spirit.of.Vengea...
Species.IV.Das.Erwachen.2007...
Species.IV.Das.Erwachen.2007...
Hotel.Transsilvanien.2012.Ge...
The.Dead.2010.German.DL.1080...
The.Dead.2.India.2013.German...
Britney.Spears.Live.The.Femm...

Filme
The.Flash.2014.S04.COMPLETE....
Westworld.S02D01-3.COMPLETE....
Mars.S02.GERMAN.DL.1080p.HDT...
Venom.2018.German.AC3D.5.1.D...
The.Flash.2014.S04.COMPLETE....
The.Big.Bang.Theory.S11.COMP...
Das.Ding.aus.einer.anderen.W...
Hitch.-.Der.Date.Doktor.2005...
Die.Drachenjaeger.German.AC3...
Ruby.UNCUT.1977.German.Dubbe...
Children.of.Men.2006.German....
Unter.der.Flagge.des.Tigers....
Blendende.Weihnachten.aka.De...
Air.Force.One.1997.German.DT...
The.Big.Bang.Theory.S11.COMP...
Fear.the.Walking.Dead.S04.CO...
Im.Jahr.des.Drachen.1985.Ger...
Meerjungfrauen.kuessen.besse...
Mars.S02.GERMAN.720p.HDTV.x2...
The.Originals.S05.GERMAN.5.1...
Alpha.2018.German.AC3.2160p....
The.Nun.2018.German.AC3.2160...
Die.Konferenz.Wie.der.Holoca...
Die.Kleinen.und.die.Boesen.2...

 
 
The.End.Of.The.World.3D.2010.German.1080p.BluRay.x264-CiC

Jahr: 2010
Genre: Action
Sprache: Deutsch DTS
Laufzeit: 1h 39mn
Bitrate: 9 969 Kbps
Format: MKV
Größe: 6.94 GiB
Release:

Beschreibung:

China im Mittelalter: Prinzessin Miao Zhen aus dem royalen Hause Ming hat Sorgen. Der friedliebende und sterbenskranke Vater drängt sie aus diplomatischen Gründen zur Hochzeit mit einem Fürstensohn aus dem weniger zivilisierten Norden. Noch viel weniger gefällt diese Entscheidung Miaos Leibwächter Yun, denn der ist der heimliche Geliebte der Prinzessin. Nun soll er sie sicher durch die Wüste an den fremden Hof geleiten – was diverse auf Krieg und reiche Beute erpichte Gauner und Schranzen zu verhindern suchen.



Complete name                            : cic-eow10803d.mkv
Format                                   : Matroska
Format version                           : Version 2
File size                                : 6.94 GiB
Duration                                 : 1h 39mn
Overall bit rate                         : 9 969 Kbps
Encoded date                             : UTC 2013-02-16 22:25:16
Writing application                      : mkvmerge v5.8.0 ('No Sleep / Pillow') built on Sep  2 2012 15:37:04
Writing library                          : libebml v1.2.3 + libmatroska v1.3.0

Video
ID                                       : 1
Format                                   : AVC
Format/Info                              : Advanced Video Codec
Format profile                           : High@L4.1
Format settings, CABAC                   : Yes
Format settings, ReFrames                : 4 frames
Codec ID                                 : V_MPEG4/ISO/AVC
Duration                                 : 1h 39mn
Bit rate                                 : 8 261 Kbps
Width                                    : 1 920 pixels
Height                                   : 1 080 pixels
Display aspect ratio                     : 16:9
Frame rate mode                          : Constant
Frame rate                               : 23.976 fps
Color space                              : YUV
Chroma subsampling                       : 4:2:0
Bit depth                                : 8 bits
Scan type                                : Progressive
Bits/(Pixel*Frame)                       : 0.166
Stream size                              : 5.75 GiB (83%)
Writing library                          : x264 core 129 r2245 bc13772
Encoding settings                        : cabac=1 / ref=4 / deblock=1:0:0 / analyse=0x3:0x113 / me=umh / subme=7 / psy=1 / psy_rd=1.00:0.00 / mixed_ref=1 / me_range=16 / chroma_me=1 / trellis=1 / 8x8dct=1 / cqm=0 / deadzone=21,11 / fast_pskip=0 / chroma_qp_offset=-2 / threads=12 / lookahead_threads=2 / sliced_threads=0 / nr=0 / decimate=1 / interlaced=0 / bluray_compat=0 / constrained_intra=0 / bframes=3 / b_pyramid=2 / b_adapt=1 / b_bias=0 / direct=1 / weightb=1 / open_gop=0 / weightp=2 / keyint=250 / keyint_min=23 / scenecut=40 / intra_refresh=0 / rc_lookahead=40 / rc=crf / mbtree=1 / crf=20.0 / qcomp=0.60 / qpmin=0 / qpmax=69 / qpstep=4 / ip_ratio=1.40 / aq=1:1.00
Language                                 : English
Default                                  : Yes
Forced                                   : No

Audio
ID                                       : 2
Format                                   : DTS
Format/Info                              : Digital Theater Systems
Mode                                     : 16
Format settings, Endianness              : Big
Codec ID                                 : A_DTS
Duration                                 : 1h 39mn
Bit rate mode                            : Constant
Bit rate                                 : 1 509 Kbps
Channel(s)                               : 6 channels
Channel positions                        : Front: L C R, Side: L R, LFE
Sampling rate                            : 48.0 KHz
Bit depth                                : 24 bits
Compression mode                         : Lossy
Stream size                              : 1.05 GiB (15%)
Language                                 : German
Default                                  : Yes
Forced                                   : No





Download:
Share Online Share OnlineShare OnlineShare Online
 

Kommentare